img image001 image001 image001 image001 image001 image001 image001 image001 image001 image001 image001 image001 image001 image001 image001

Planets Sun Sun Sun
Статистика раздачи
Автор: Nickolas3434 | Размер: 2.34 ГБ | Добавлен: 12 янв 2018
Раздают: 101    Качают: 9
Скачать торрент
Скачать торрент
Описание торрента

СообщениеДобавлено: 12 янв 2018 

Информация о фильме
Наименование: Бэтмен против Двуликого
Оригинальное наименование: Batman vs. Two-Face
Произведено: США
Категория: мультфильм, боевик, комедия
Режиссер постановщик: Рик Моралес
В главных ролях: Адам Уэст, Берт Уорд, Уильям Шетнер, Джули Ньюмар, Джефф Бергман, Сирена Ирвин, Томас Леннон, Ли Меривезер, Уильям Салиерс, Линн Мари Стюарт
О фильме: Во время несчастного случая в лечебнице Аркхэм лицо Харви Дента оказывается изуродовано, что приводит к его раздвоению личности и превращению в Двуликого. Пока он устраивает хаос в Готэме, только Бэтмен и Робин могут его остановить.

Файл
Качество: BDRip 720p
Видео данные: MKV, 1280x720 (16:9), 23.976 fps, 4000 Кбит/с
Аудио данные: Русский AC3, 2 ch, 640 Кбит/с
Перевод: Любительский многоголосый (GreenРай Studio)
Продолжительность: 01:12:42
Над релизом работали:
Состав дикторов: Нана Саркисян и Илья Кочетков, Игорь Кузьмин
Руководитель проекта и координатор: Евгений Овчаренко
Организатор и координатор: Никита Марков
Пиар менеджер студии: Игорь Обухов
Техническая поддержка: Александр Методий
Над переводом работала: Любовь Геннадиевна
General
Unique ID : 246171609665094486246845088711988725379 (0xB932ED6D7121AF61A912D2C4459FC683)
Complete name : D:БэтменBatman.vs.Two.Faces.2017.P.BDRip.720p.mkv
Format : Matroska
Format version : Version 4 / Version 2
File size : 2.34 GiB
Duration : 1 h 12 min
Overall bit rate mode : Constant
Overall bit rate : 4 604 kb/s
Encoded date : UTC 2018-01-09 13:24:12
Writing application : mkvmerge v8.3.0 ('Over the Horizon') 64bit
Writing library : libebml v1.3.1 + libmatroska v1.4.2
Video
ID : 1
Format : AVC
Format/Info : Advanced Video Codec
Format profile : [email protected]
Format settings, CABAC : Yes
Format settings, ReFrames : 3 frames
Codec ID : V_MPEG4/ISO/AVC
Duration : 1 h 12 min
Bit rate mode : Constant
Bit rate : 4 000 kb/s
Width : 1 280 pixels
Height : 720 pixels
Display aspect ratio : 16:9
Frame rate mode : Constant
Frame rate : 23.976 (23976/1000) FPS
Standard : NTSC
Color space : YUV
Chroma subsampling : 4:2:0
Bit depth : 8 bits
Scan type : Progressive
Bits/(Pixel*Frame) : 0.181
Stream size : 2.01 GiB (86%)
Language : English
Default : Yes
Forced : No
Color range : Limited
Audio
ID : 2
Format : AC-3
Format/Info : Audio Coding 3
Mode extension : CM (complete main)
Format settings, Endianness : Big
Codec ID : A_AC3
Duration : 1 h 12 min
Bit rate mode : Constant
Bit rate : 640 kb/s
Channel(s) : 2 channels
Channel positions : Front: L R
Sampling rate : 48.0 kHz
Frame rate : 31.250 FPS (1536 spf)
Compression mode : Lossy
Stream size : 333 MiB (14%)
Default : Yes
Forced : No

ВНИМАНИЕ! Присутствует реклама!

Релиз от:



   Похожие торренты   Торрент   Размер 
В этой теме нет новых непрочитанных сообщений. Бэтмен против Двуликого / Batman vs. Two-Face (2017) HDRip | L

90 | 6

1.31 ГБ

В этой теме нет новых непрочитанных сообщений. Бэтмен против Робина / Batman vs. Robin (2015) BDRip 720p | Чистый звук

183 | 18

2.26 ГБ

В этой теме нет новых непрочитанных сообщений. Бэтмен против Супермена: На заре справедливости / Batman v Superman: Dawn of Justice (2016) BDRip 720p | Theatrical Cut | Лицензия

24 | 25

10.14 ГБ

В этой теме нет новых непрочитанных сообщений. Бэтмен против Супермена: На заре справедливости / Batman v Superman: Dawn of Justice (2016) BDRip HEVC 720p | iTunes

94 | 17

4.95 ГБ

В этой теме нет новых непрочитанных сообщений. Бэтмен против Супермена: На заре справедливости / Batman v Superman:Dawn of Just. (2016) BDRip 720p от ExKinoRay | Расширенная версия | P, A

75 | 25

13.15 ГБ

В этой теме нет новых непрочитанных сообщений. Бэтмен против Супермена: На заре справедливости / Batman v Superman: Dawn of Justice (2016) BDRip 720p | Расширенная версия | P

219 | 101

12.25 ГБ

В этой теме нет новых непрочитанных сообщений. Бэтмен против Супермена: На заре справедливости / Batman v Superman: Dawn of Justice (2016) BDRip 720p от ExKinoRay | iTunes

229 | 29

6.39 ГБ




Вы не можете начинать темы
Вы не можете отвечать на сообщения
Вы не можете редактировать свои сообщения
Вы не можете удалять свои сообщения
Вы не можете добавлять вложения

Перейти:  
Для Мосгорсуда, Роскомнадзора и рекламодателей: mosgorsud-torrent[собачка]yandex.ru
 Вход
ppkBB3cker v.2 © 2008-2014 @ PPK
[ Time : 0.048s | 17 Queries | GZIP : Off ]

cron