img image001 image001 image001 image001 image001 image001 image001 image001 image001 image001 image001 image001 image001 image001 image001

Planets Sun Sun Sun
Статистика раздачи
Автор: Nickolas3434 | Размер: 1.25 ГБ | Добавлен: 12 янв 2018
Раздают: 15    Качают: 0
Скачать торрент
Скачать торрент
Описание торрента

СообщениеДобавлено: 12 янв 2018 

Новогодние приключения Маши и Вити

Жанр: сказка, музыкальный
Год выпуска: 1975
Продолжительность: 01:06:41
Перевод: Не требуется
Режиссёр: Игорь Усов
В ролях: Юра Нахратов, Наташа Симонова, Игорь Ефимов, Ирина Борисова, Георгий Штиль, Вера Титова, Михаил Боярский,
Николай Боярский (вокал - Виктор Кривонос), Валентина Кособуцкая, Любовь Виролайнен, Борис Смолкин
Описание: Новогодний праздничный музыкальный фильм для детей по мотивам русских народных сказок с участием Бабы-Яги, Лешего, Кота Матвея и Кащея Бессмертного.

Кодек: х264
Качество: SATRip-AVC
Видео: MPEG-4 AVC, [email protected], 25 fps, 2500 Кбит/с
Аудио: Русский AC3, 2 ch, 192 Кбит/с

x264 [info]: frame I:571 Avg QP:15.39 size: 74772
x264 [info]: frame P:27362 Avg QP:19.19 size: 25423
x264 [info]: frame B:72092 Avg QP:21.30 size: 7103
Общее
Уникальный идентификатор : 237421925526675152996450799898263446387 (0xB29DCCB171D278878C7204F15BD66373)
Полное имя : E:Мои рипыНовогодние приключения Маши и Вити 1975_SATRip-AVC_KORSAR.mkv
Формат : Matroska
Версия формата : Version 2
Размер файла : 1,25 Гбайт
Продолжительность : 1 ч. 6 м.
Общий поток : 2694 Кбит/сек
Дата кодирования : UTC 2018-01-06 21:17:52
Программа кодирования : mkvmerge v5.8.0 ('No Sleep / Pillow') built on Sep 2 2012 15:37:04
Библиотека кодирования : libebml v1.2.3 + libmatroska v1.3.0
Видео
Идентификатор : 1
Формат : AVC
Формат/Информация : Advanced Video Codec
Профиль формата : [email protected]
Настройки формата : CABAC / 15 Ref Frames
Параметр CABAC формата : Да
Параметр RefFrames формата : 15 кадров
Идентификатор кодека : V_MPEG4/ISO/AVC
Продолжительность : 1 ч. 6 м.
Битрейт : 2500 Кбит/сек
Ширина : 714 пикселей
Высота : 576 пикселей
Соотношение сторон : 4:3
Соотношение сторон в оригинале : 4:3
Режим частоты кадров : Постоянный
Частота кадров : 25,000 кадров/сек
Цветовое пространство : YUV
Субдискретизация насыщенности : 4:2:0
Битовая глубина : 8 бит
Тип развёртки : Прогрессивная
Бит/(Пиксели*Кадры) : 0.243
Размер потока : 1,14 Гбайт (91%)
Библиотека кодирования : x264 core 152 r2851kMod ba24899
Настройки программы : cabac=1 / ref=15 / deblock=1:-2:-1 / analyse=0x3:0x133 / me=umh / subme=11 / psy=1 / fade_compensate=0.00 / psy_rd=1.05:0.10 / mixed_ref=1 / me_range=48 / chroma_me=1 / trellis=2 / 8x8dct=1 / cqm=0 / deadzone=21,11 / fast_pskip=0 / chroma_qp_offset=-3 / threads=12 / lookahead_threads=3 / sliced_threads=0 / nr=0 / decimate=0 / interlaced=0 / bluray_compat=0 / constrained_intra=0 / bframes=10 / b_pyramid=2 / b_adapt=2 / b_bias=0 / direct=3 / weightb=1 / open_gop=0 / weightp=2 / keyint=250 / keyint_min=25 / scenecut=40 / intra_refresh=0 / rc_lookahead=40 / rc=2pass / mbtree=0 / bitrate=2500 / ratetol=1.0 / qcomp=0.60 / qpmin=0 / qpmax=39 / qpstep=4 / cplxblur=20.0 / qblur=0.5 / vbv_maxrate=50000 / vbv_bufsize=62500 / nal_hrd=none / filler=0 / ip_ratio=1.40 / pb_ratio=1.30 / aq=2:0.90
Язык : English
Default : Да
Forced : Нет
Цветовой диапазон : Limited
Основные цвета : BT.601 PAL
Характеристики трансфера : BT.470 System B, BT.470 System G
Коэффициенты матрицы : BT.470 System B, BT.470 System G
Аудио
Идентификатор : 2
Формат : AC-3
Формат/Информация : Audio Coding 3
Параметр Endianness формата : Big
Идентификатор кодека : A_AC3
Продолжительность : 1 ч. 6 м.
Вид битрейта : Постоянный
Битрейт : 192 Кбит/сек
Каналы : 2 канала
Расположение каналов : Front: L R
Частота : 48,0 КГц
Частота кадров : 31,250 кадров/сек (1536 SPF)
Битовая глубина : 16 бит
Метод сжатия : С потерями
Размер потока : 91,6 Мбайт (7%)
Default : Да
Forced : Нет




   Похожие торренты   Торрент   Размер 
В этой теме нет новых непрочитанных сообщений. Новогодние приключения Маши и Вити (1975) DVDRip

216 | 7

699.6 МБ

В этой теме нет новых непрочитанных сообщений. Новогодние приключения Маши и Вити (1975) DVDRip

201 | 12

1.09 ГБ

В этой теме нет новых непрочитанных сообщений. Новогодние приключения Маши и Вити (1975) DVDRip

509 | 31

1.37 ГБ

В этой теме нет новых непрочитанных сообщений. Новогодние приключения Маши и Вити (1975) DVDRip

407 | 18

742.12 МБ

В этой теме нет новых непрочитанных сообщений. Новогодние приключения Маши и Вити (1975) DVDRip-AVC от Youtracker

83 | 5

744.11 МБ

В этой теме нет новых непрочитанных сообщений. Новогодние приключения Маши и Вити (1975) DVD5 от Youtracker

217 | 9

4.03 ГБ

В этой теме нет новых непрочитанных сообщений. Дневник директора школы (1975) SATRip-AVC от KORSAR

1 | 0

1.33 ГБ




Вы не можете начинать темы
Вы не можете отвечать на сообщения
Вы не можете редактировать свои сообщения
Вы не можете удалять свои сообщения
Вы не можете добавлять вложения

Перейти:  
Для Мосгорсуда, Роскомнадзора и рекламодателей: mosgorsud-torrent[собачка]yandex.ru
 Вход
ppkBB3cker v.2 © 2008-2014 @ PPK
[ Time : 0.038s | 17 Queries | GZIP : Off ]

cron