img image001 image001 image001 image001 image001 image001 image001 image001 image001 image001 image001 image001 image001 image001 image001

Planets Sun Sun Sun
Статистика раздачи
Автор: Nickolas3434 | Размер: 5.68 ГБ | Добавлен: 12 янв 2018
Раздают: 33    Качают: 4
Скачать торрент
Скачать торрент
Описание торрента

СообщениеДобавлено: 12 янв 2018 

Информация о фильме
Название: Сокровище Амазонки
Оригинальное название: The Rundown
Год выхода: 2003
Жанр: боевик, триллер, комедия, приключения
Режиссер: Питер Берг
В ролях: Дуэйн Джонсон, Шонн Уильям Скотт, Розарио Доусон, Кристофер Уокен, Юэн Бремнер, Джон Гриз, Уильям Лаккинг, Эрни Рейес мл., Стюарт Ф. Уилсон, Дэннис Кейффер
О фильме:
Если поступило предложение, от которого нельзя отказаться, — вот и не отказывайся! В качестве расплаты с долгом перед мафией интеллигентному громиле Веку предлагается отправиться в джунгли Амазонки и доставить домой затерявшегося где-то там афериста Трэвиса, блудного сына «крестного отца». Вот только прибыв на место, герой обнаруживает, что шансов доставить свой груз не по частям у него маловато. Непутевый Трэвис перешел дорожку местному авторитету Хэтчеру, начав охоту за легендарным золотым идолом индейцев, на который тот давно мечтал наложить лапу. Беку не остается иного выбора, как призвать на помощь свои незаурядное чувство юмора, стальные мускулы и вступить в сумасшедшую гонку за сокровищем, пока его «клиента» не скормили ягуарам!..

Страна: США
Продолжительность: 01:44:15
Перевод: Профессиональный дублированный, профессиональный одноголосый
Файл
Кодек: HEVC x265 10bit
Качество: BDRip-HEVC 1080p
Видео: 1920x816, 23.976 кадр/сек, 5999 Кбит/сек, (Main [email protected]@High) 10bit
Звук:
Аудио1: Русская, AC3 448 Кбит/сек, 6 канала(ов),16bit 48,0 КГц (Дубляж Blu-ray CEE)
Аудио2: Русская, AC3 448 Кбит/сек, 6 канала(ов),16bit 48,0 КГц (AVO Гаврилов)
Аудио3: Русская, AC3 448 Кбит/сек, 6 канала(ов),16bit 48,0 КГц (AVO Живов)
Аудио4: English, AC3 448 Кбит/сек, 6 канала(ов),16bit 48,0 КГц
Субтитры: Русские, English
Навигация по главам: Есть
General
Unique ID : 178232774784994168880422851830837218261 (0x86166240E93D4D538D833288946D0BD5)
Complete name : F:HEVCThe Rundown (2003) BDRip 1080p [HEVC] 10Bit.mkv
Format : Matroska
Format version : Version 4 / Version 2
File size : 5.68 GiB
Duration : 1 h 44 min
Overall bit rate : 7 794 kb/s
Movie name : rip_by_Cthulhu
Encoded date : UTC 2018-01-06 20:35:55
Writing application : mkvmerge v18.0.0 ('Apricity') 64-bit
Writing library : libebml v1.3.5 + libmatroska v1.4.8
Cover : Yes
Attachments : cover.jpg
Video
ID : 1
Format : HEVC
Format/Info : High Efficiency Video Coding
Format profile : Main [email protected]@High
Codec ID : V_MPEGH/ISO/HEVC
Duration : 1 h 44 min
Bit rate : 5 999 kb/s
Width : 1 920 pixels
Height : 816 pixels
Display aspect ratio : 2.35:1
Frame rate mode : Constant
Frame rate : 23.976 (24000/1001) FPS
Color space : YUV
Chroma subsampling : 4:2:0
Bit depth : 10 bits
Bits/(Pixel*Frame) : 0.160
Stream size : 4.37 GiB (77%)
Writing library : x265 2.6+22-ff02513b92c0:[Windows][GCC 7.1.0][64 bit] 10bit
Encoding settings : cpuid=1050111 / frame-threads=5 / numa-pools=4 / wpp / no-pmode / no-pme / no-psnr / no-ssim / log-level=3 / input-csp=1 / input-res=1920x816 / interlace=0 / total-frames=0 / level-idc=0 / high-tier=1 / uhd-bd=0 / ref=5 / allow-non-conformance / no-repeat-headers / annexb / no-aud / no-hrd / info / hash=0 / no-temporal-layers / open-gop / min-keyint=24 / keyint=240 / gop-lookahead=0 / bframes=10 / b-adapt=2 / b-pyramid / bframe-bias=0 / rc-lookahead=40 / lookahead-slices=5 / scenecut=40 / radl=0 / no-intra-refresh / ctu=64 / min-cu-size=8 / no-rect / no-amp / max-tu-size=32 / tu-inter-depth=3 / tu-intra-depth=3 / limit-tu=0 / rdoq-level=0 / dynamic-rd=0.00 / no-ssim-rd / signhide / no-tskip / nr-intra=0 / nr-inter=0 / no-constrained-intra / strong-intra-smoothing / max-merge=3 / limit-refs=3 / no-limit-modes / me=2 / subme=7 / merange=57 / temporal-mvp / weightp / weightb / no-analyze-src-pics / deblock=-3:-3 / no-sao / no-sao-non-deblock / rd=4 / no-early-skip / rskip / no-fast-intra / no-tskip-fast / no-cu-lossless / no-b-intra / no-splitrd-skip / rdpenalty=0 / psy-rd=2.00 / psy-rdoq=0.00 / no-rd-refine / no-lossless / cbqpoffs=0 / crqpoffs=0 / rc=crf / crf=18.5 / qcomp=0.60 / qpstep=4 / stats-write=0 / stats-read=0 / vbv-maxrate=50000 / vbv-bufsize=35714 / vbv-init=0.9 / crf-max=0.0 / crf-min=0.0 / ipratio=1.40 / pbratio=1.30 / aq-mode=1 / aq-strength=1.00 / cutree / zone-count=0 / no-strict-cbr / qg-size=32 / no-rc-grain / qpmax=69 / qpmin=0 / no-const-vbv / sar=1 / overscan=0 / videoformat=5 / range=0 / colorprim=1 / transfer=1 / colormatrix=1 / chromaloc=0 / display-window=0 / max-cll=0,0 / min-luma=0 / max-luma=1023 / log2-max-poc-lsb=8 / vui-timing-info / vui-hrd-info / slices=1 / no-opt-qp-pps / no-opt-ref-list-length-pps / no-multi-pass-opt-rps / scenecut-bias=0.05 / no-opt-cu-delta-qp / no-aq-motion / no-hdr / no-hdr-opt / no-dhdr10-opt / analysis-save=(null) / analysis-load=(null) / analysis-reuse-level=5 / scale-factor=0 / refine-intra=0 / refine-inter=0 / refine-mv=0 / no-limit-sao / ctu-info=0 / no-lowpass-dct / refine-mv-type=0 / copy-pic=1
Language : English
Default : Yes
Forced : No
Color range : Limited
Color primaries : BT.709
Transfer characteristics : BT.709
Matrix coefficients : BT.709
Audio #1
ID : 2
Format : AC-3
Format/Info : Audio Coding 3
Format settings, Endianness : Big
Codec ID : A_AC3
Duration : 1 h 44 min
Bit rate mode : Constant
Bit rate : 448 kb/s
Channel(s) : 6 channels
Channel positions : Front: L C R, Side: L R, LFE
Sampling rate : 48.0 kHz
Frame rate : 31.250 FPS (1536 SPF)
Bit depth : 16 bits
Compression mode : Lossy
Stream size : 334 MiB (6%)
Title : полное дублирование CEE
Language : Russian
Service kind : Complete Main
Default : Yes
Forced : No
Audio #2
ID : 3
Format : AC-3
Format/Info : Audio Coding 3
Format settings, Endianness : Big
Codec ID : A_AC3
Duration : 1 h 44 min
Bit rate mode : Constant
Bit rate : 448 kb/s
Channel(s) : 6 channels
Channel positions : Front: L C R, Side: L R, LFE
Sampling rate : 48.0 kHz
Frame rate : 31.250 FPS (1536 SPF)
Bit depth : 16 bits
Compression mode : Lossy
Stream size : 334 MiB (6%)
Title : AVO Гаврилов
Language : Russian
Service kind : Complete Main
Default : No
Forced : No
Audio #3
ID : 4
Format : AC-3
Format/Info : Audio Coding 3
Format settings, Endianness : Big
Codec ID : A_AC3
Duration : 1 h 44 min
Bit rate mode : Constant
Bit rate : 448 kb/s
Channel(s) : 6 channels
Channel positions : Front: L C R, Side: L R, LFE
Sampling rate : 48.0 kHz
Frame rate : 31.250 FPS (1536 SPF)
Bit depth : 16 bits
Compression mode : Lossy
Stream size : 334 MiB (6%)
Title : AVO Живов
Language : Russian
Service kind : Complete Main
Default : No
Forced : No
Audio #4
ID : 5
Format : AC-3
Format/Info : Audio Coding 3
Format settings, Endianness : Big
Codec ID : A_AC3
Duration : 1 h 44 min
Bit rate mode : Constant
Bit rate : 448 kb/s
Channel(s) : 6 channels
Channel positions : Front: L C R, Side: L R, LFE
Sampling rate : 48.0 kHz
Frame rate : 31.250 FPS (1536 SPF)
Bit depth : 16 bits
Compression mode : Lossy
Stream size : 334 MiB (6%)
Language : English
Service kind : Complete Main
Default : No
Forced : No
Text #1
ID : 6
Format : UTF-8
Codec ID : S_TEXT/UTF8
Codec ID/Info : UTF-8 Plain Text
Duration : 1 h 36 min
Bit rate : 82 b/s
Count of elements : 1068
Stream size : 58.8 KiB (0%)
Language : Russian
Default : Yes
Forced : No
Text #2
ID : 7
Format : UTF-8
Codec ID : S_TEXT/UTF8
Codec ID/Info : UTF-8 Plain Text
Duration : 1 h 37 min
Bit rate : 55 b/s
Count of elements : 1059
Stream size : 39.7 KiB (0%)
Language : English
Default : No
Forced : No
Menu
00:00:00.000 : :00:00:00.000
00:05:57.857 : :00:05:57.857
00:11:31.941 : :00:11:31.941
00:16:29.238 : :00:16:29.238
00:23:49.261 : :00:23:49.261
00:29:18.006 : :00:29:18.006
00:36:12.295 : :00:36:12.295
00:42:17.160 : :00:42:17.160
00:48:35.246 : :00:48:35.246
00:54:23.051 : :00:54:23.051
01:02:12.604 : :01:02:12.604
01:08:52.545 : :01:08:52.545
01:16:15.446 : :01:16:15.446
01:23:27.377 : :01:23:27.377
01:29:43.461 : :01:29:43.461
01:32:50.231 : :01:32:50.231


Релиз от: Cthulhu



   Похожие торренты   Торрент   Размер 
В этой теме нет новых непрочитанных сообщений. Сокровище Амазонки / The Rundown (2003) BDRip 1080p от FREEISLAND

97 | 17

4.36 ГБ

В этой теме нет новых непрочитанных сообщений. Сокровище Амазонки / The Rundown (2003) BDRip 1080p от FREEISLAND

79 | 10

7.94 ГБ

В этой теме нет новых непрочитанных сообщений. Сокровище Амазонки / The Rundown (2003) Blu-ray CEE 1080p | D | Лицензия

98 | 52

36.54 ГБ

В этой теме нет новых непрочитанных сообщений. Сокровище Амазонки / The Rundown (2003) BDRip-AVC | D, A

276 | 13

2.91 ГБ

В этой теме нет новых непрочитанных сообщений. Сокровище Амазонки / The Rundown (2003) BDRip от HQCLUB

31 | 11

2.18 ГБ

В этой теме нет новых непрочитанных сообщений. Сокровище Амазонки / The Rundown (2003) BDRip от HQCLUB

251 | 85

2.18 ГБ

В этой теме нет новых непрочитанных сообщений. Сокровище Амазонки / The Rundown (2003) BDRip | Гаврилов

158 | 12

1.46 ГБ




Вы не можете начинать темы
Вы не можете отвечать на сообщения
Вы не можете редактировать свои сообщения
Вы не можете удалять свои сообщения
Вы не можете добавлять вложения

Перейти:  
Для Мосгорсуда, Роскомнадзора и рекламодателей: mosgorsud-torrent[собачка]yandex.ru
 Вход
ppkBB3cker v.2 © 2008-2014 @ PPK
[ Time : 0.042s | 18 Queries | GZIP : Off ]

cron