img image001 image001 image001 image001 image001 image001 image001 image001 image001 image001 image001 image001 image001 image001 image001

Planets Sun Sun Sun
Статистика раздачи
Автор: Nickolas3434 | Размер: 6.07 ГБ | Добавлен: 01 янв 2018
Раздают: 92    Качают: 1
Скачать торрент
Скачать торрент
Описание торрента

СообщениеДобавлено: 01 янв 2018 

Информация о фильме
Название: Дыши ради нас
Оригинальное название: Breathe
Год выхода: 2017
Жанр: Драма, мелодрама, биография
Режиссер: Энди Серкис
В ролях: Эндрю Гарфилд, Клер Фой, Эдвард Спелирс, Том Холландер, Дэвид Батлер, Бен Ллойд-Хьюз, Миранда Рэйсон, Камилла Разерфорд, Андре Джейкобс, Терри Нортон, Чарльз Стритер, Пенни Дауни, Амит Шах, Джонатан Хайд, Эмили Беван, Роджер Эштон-Гриффитс, Дэвид Уилмот, Патрик Годфри, Пикси, Хью Бонневилль, Лоррейн Эшборн, Рози Кавальеро, Джек Мэдигэн, Фрэнк Мэдигэн, Гарри Этвелл, Харриет Тернбулл, Гарри Маркус, Марина Бай, Тони Капрари, Орели Стрэттон, Стивен Мэнгэн, Адам Нилл
О фильме:
Его манеры, настойчивость и великолепное чувство юмора с первого взгляда покорили неприступную Диану. После свадьбы молодожены отправляются в путешествие, где Робин тяжело заболевает. И теперь только любовь способна подарить ему вторую жизнь…

Страна: Великобритания
Студия: The Imaginarium Studios
Продолжительность: 01:57:40
Перевод: Дублированный | iTunes
Файл
Качество: BDRip 720p
Видео: MPEG-4 AVC, 1280x464, 5500 Kbit/s, 23.976 fps
Звук:
Аудио #01: 48 kHz, AC3, 5.1, 384 Kbps | Дублированный | iTunes | RUS |
Аудио #02: 48 kHz, DTS, 5.1, 1510 Kbps | Оригинал | ENG |

General
Unique ID : 325759154577582606689327589145824014327 (0xF512EE59069135BC6574CEE59E012FF7)
Complete name : G:VideoSSDBreathe.2017.BDRip.720p.ExKinoRay.mkv
Format : Matroska
Format version : Version 4 / Version 2
File size : 6.07 GiB
Duration : 1 h 58 min
Overall bit rate : 7 360 kb/s
Movie name : Breathe 2017 from ExKinoRay
Encoded date : UTC 2017-12-29 22:09:09
Writing application : mkvmerge v19.0.0 ('Brave Captain') 64-bit
Writing library : libebml v1.3.5 + libmatroska v1.4.8
Video
ID : 1
Format : AVC
Format/Info : Advanced Video Codec
Format profile : [email protected]
Format settings : CABAC / 14 Ref Frames
Format settings, CABAC : Yes
Format settings, ReFrames : 14 frames
Codec ID : V_MPEG4/ISO/AVC
Duration : 1 h 57 min
Bit rate : 5 500 kb/s
Width : 1 280 pixels
Height : 464 pixels
Display aspect ratio : 2.759
Frame rate mode : Constant
Frame rate : 23.976 (24000/1001) FPS
Color space : YUV
Chroma subsampling : 4:2:0
Bit depth : 8 bits
Scan type : Progressive
Bits/(Pixel*Frame) : 0.386
Stream size : 4.51 GiB (74%)
Writing library : x264 core 148 r2597 e86f3a1
Encoding settings : cabac=1 / ref=14 / deblock=1:0:0 / analyse=0x3:0x113 / me=umh / subme=10 / psy=1 / psy_rd=1.05:0.10 / mixed_ref=1 / me_range=32 / chroma_me=1 / trellis=2 / 8x8dct=1 / cqm=0 / deadzone=21,11 / fast_pskip=0 / chroma_qp_offset=-2 / threads=12 / lookahead_threads=1 / sliced_threads=0 / nr=0 / decimate=1 / interlaced=0 / bluray_compat=0 / constrained_intra=0 / bframes=6 / b_pyramid=2 / b_adapt=2 / b_bias=0 / direct=3 / weightb=1 / open_gop=0 / weightp=2 / keyint=250 / keyint_min=23 / scenecut=40 / intra_refresh=0 / rc=2pass / mbtree=0 / bitrate=5500 / ratetol=1.0 / qcomp=0.70 / qpmin=0 / qpmax=69 / qpstep=4 / cplxblur=20.0 / qblur=0.5 / ip_ratio=1.40 / pb_ratio=1.30 / aq=2:1.00
Language : English
Default : Yes
Forced : No
Audio #1
ID : 2
Format : AC-3
Format/Info : Audio Coding 3
Codec ID : A_AC3
Duration : 1 h 58 min
Bit rate mode : Constant
Bit rate : 384 kb/s
Channel(s) : 6 channels
Channel positions : Front: L C R, Side: L R, LFE
Sampling rate : 48.0 kHz
Frame rate : 31.250 FPS (1536 SPF)
Bit depth : 16 bits
Compression mode : Lossy
Stream size : 324 MiB (5%)
Title : iTunes
Language : Russian
Service kind : Complete Main
Default : Yes
Forced : No
Audio #2
ID : 3
Format : DTS
Format/Info : Digital Theater Systems
Codec ID : A_DTS
Duration : 1 h 57 min
Bit rate mode : Constant
Bit rate : 1 509 kb/s
Channel(s) : 6 channels
Channel positions : Front: L C R, Side: L R, LFE
Sampling rate : 48.0 kHz
Frame rate : 93.750 FPS (512 SPF)
Bit depth : 24 bits
Compression mode : Lossy
Stream size : 1.24 GiB (20%)
Title : Original
Language : English
Default : No
Forced : No
Menu
00:00:00.000 : en:00:00:00.000
00:07:42.587 : en:00:07:42.587
00:16:46.172 : en:00:16:46.172
00:24:08.947 : en:00:24:08.947
00:33:19.998 : en:00:33:19.998
00:42:11.112 : en:00:42:11.112
00:51:07.439 : en:00:51:07.439
00:59:55.717 : en:00:59:55.717
01:08:09.627 : en:01:08:09.627
01:18:35.961 : en:01:18:35.961
01:26:59.089 : en:01:26:59.089
01:35:50.453 : en:01:35:50.453

Релиз от: Автор релиза:
Подпишись на меня, кликни по картинке > :



   Похожие торренты   Торрент   Размер 
В этой теме нет новых непрочитанных сообщений. Дыши ради нас / Breathe (2017) BDRip 1080p от ExKinoRay | iTunes

0 | 0

8.93 ГБ

В этой теме нет новых непрочитанных сообщений. Дыши ради нас / Breathe (2017) BDRip 1080p от ExKinoRay | iTunes

101 | 9

10.79 ГБ

В этой теме нет новых непрочитанных сообщений. Дыши ради нас / Breathe (2017) BDRemux 1080p от ExKinoRay | iTunes

15 | 0

30.56 ГБ

В этой теме нет новых непрочитанных сообщений. Дыши ради нас / Breathe (2017) BDRip 720p от k.e.n & MegaPeer | D | iTunes

84 | 16

4.32 ГБ

В этой теме нет новых непрочитанных сообщений. Дыши ради нас / Breathe (2017) BDRip от MegaPeer | iTunes

78 | 3

746.04 МБ

В этой теме нет новых непрочитанных сообщений. Дыши ради нас / Breathe (2017) BDRip-AVC от k.e.n & MegaPeer | D | iTunes

50 | 7

2.13 ГБ

В этой теме нет новых непрочитанных сообщений. Дыши ради нас / Breathe (2017) BDRip от MegaPeer | iTunes

965 | 15

1.41 ГБ




Вы не можете начинать темы
Вы не можете отвечать на сообщения
Вы не можете редактировать свои сообщения
Вы не можете удалять свои сообщения
Вы не можете добавлять вложения

Перейти:  
Для Мосгорсуда, Роскомнадзора и рекламодателей: mosgorsud-torrent[собачка]yandex.ru
 Вход
ppkBB3cker v.2 © 2008-2014 @ PPK
[ Time : 0.055s | 19 Queries | GZIP : Off ]

cron