img image001 image001 image001 image001 image001 image001 image001 image001 image001 image001 image001 image001 image001 image001 image001

Planets Sun Sun Sun
Статистика раздачи
Автор: Nickolas3434 | Размер: 48.81 ГБ | Добавлен: 29 дек 2017
Раздают: 23    Качают: 7
Скачать торрент
Скачать торрент
Описание торрента

СообщениеДобавлено: 29 дек 2017 

Информация о фильме
Название: Ананасовый экспресс: Сижу, курю
Оригинальное название: Pineapple Express
Год выхода: 2008
Жанр: Боевик, приключения, комедия, криминал, триллер
Режиссер: Дэвид Гордон Грин
В ролях: Сет Роген, Джеймс Франко, Дэнни МакБрайд, Кевин Корригэн, Крейг Робинсон, Гэри Коул, Рози Перес, Эд Бегли-мл., Нора Данн, Эмбер Хёрд, Джо Ло Труглио, Артур Напионтек, Клео Кинг, Билл Хэйдер, Джеймс Римар, Ричард Домингез
О фильме:
Дейл Дентон живет не тужит. В свои 25 лет встречается с 18-летней школьницей и работает судебным исполнителем, изобретательно вручая людям повестки в суд. Работка та еще, но Дейл может себе позволить курить травку хоть весь день, и это позволяет ему относиться ко всему спокойнее. Но однажды он стал свидетелем убийства, от испуга привлек внимание убийцы, да еще оставил на месте косяк с эксклюзивной травкой, по которой можно без труда выйти сначала на его дилера, а потом и на него самого. Дейл бросился к своему дилеру Солу, тот быстро смекнул, что надо делат ноги, и, прихватив пакет травы, парни растворились в ночи. Однако бесконечно прятаться невозможно, а значит, надо что-то делать.

Страна: США
Студия: Columbia Pictures
Продолжительность: 01:57:01
Перевод: Дублированный | Лицензия
Файл
Качество: BDRemux 2160p
Видео: MPEG-H HEVC HDR Video, 3840x2160, 56.7 Mbit/s, 23.976 fps
Звук:
Аудио #01: 48 kHz, AC3, 5.1, 448 Kbps | Дублированный | RUS |
Аудио #02: 48 kHz, TrueHD, 7.1, 4482 Kbps | Оригинал | ENG |
Аудио #03: 48 kHz, AC3, 5.1, 640 Kbps | Оригинал | ENG |
Субтитры: Русские (full), английские

General
Unique ID : 50599492039287321756472962685768737040 (0x26111B918059BBFA3394581CDE32A110)
Complete name : G:VideoSSDPineapple.Express.2008.BDREMUX.2160p.4K.UltraHD.HEVC.HDR.ExKinoRay.mkv
Format : Matroska
Format version : Version 4 / Version 2
File size : 48.8 GiB
Duration : 1 h 52 min
Overall bit rate mode : Variable
Overall bit rate : 62.4 Mb/s
Movie name : Pineapple Express 2008 from ExKinoRay
Encoded date : UTC 2017-12-28 11:25:34
Writing application : mkvmerge v19.0.0 ('Brave Captain') 64-bit
Writing library : libebml v1.3.5 + libmatroska v1.4.8
Video
ID : 1
Format : HEVC
Format/Info : High Efficiency Video Coding
Format profile : Main [email protected]@High
Codec ID : V_MPEGH/ISO/HEVC
Duration : 1 h 52 min
Bit rate : 56.7 Mb/s
Width : 3 840 pixels
Height : 2 160 pixels
Display aspect ratio : 16:9
Frame rate mode : Constant
Frame rate : 23.976 (24000/1001) FPS
Color space : YUV
Chroma subsampling : 4:2:0 (Type 2)
Bit depth : 10 bits
Bits/(Pixel*Frame) : 0.285
Stream size : 44.4 GiB (91%)
Language : English
Default : Yes
Forced : No
Color range : Limited
Color primaries : BT.2020
Transfer characteristics : PQ
Matrix coefficients : BT.2020 non-constant
Mastering display color pri : R: x=0.680000 y=0.320000, G: x=0.265000 y=0.690000, B: x=0.150000 y=0.060000, White point: x=0.312700 y=0.329000
Mastering display luminance : min: 0.0050 cd/m2, max: 4000.0000 cd/m2
Maximum Content Light Level : 2868 cd/m2
Maximum Frame-Average Light : 681 cd/m2
Audio #1
ID : 2
Format : AC-3
Format/Info : Audio Coding 3
Codec ID : A_AC3
Duration : 1 h 52 min
Bit rate mode : Constant
Bit rate : 448 kb/s
Channel(s) : 6 channels
Channel positions : Front: L C R, Side: L R, LFE
Sampling rate : 48.0 kHz
Frame rate : 31.250 FPS (1536 SPF)
Bit depth : 16 bits
Compression mode : Lossy
Stream size : 359 MiB (1%)
Title : Dub
Language : Russian
Service kind : Complete Main
Default : Yes
Forced : No
Audio #2
ID : 3
Format : TrueHD
Format profile : TrueHD+Atmos / TrueHD
Codec ID : A_TRUEHD
Duration : 1 h 52 min
Bit rate mode : Variable
Bit rate : 4 482 kb/s
Maximum bit rate : 7 863 kb/s
Channel(s) : Object Based / 8 channels
Channel positions : Object Based / Front: L C R, Side: L R, Back: L R, LFE
Sampling rate : / 48.0 kHz
Frame rate : 1 200.000 FPS (40 SPF)
Compression mode : Lossless
Stream size : 3.51 GiB (7%)
Title : Original
Language : English
Default : No
Forced : No
Audio #3
ID : 4
Format : AC-3
Format/Info : Audio Coding 3
Codec ID : A_AC3
Duration : 1 h 52 min
Bit rate mode : Constant
Bit rate : 640 kb/s
Channel(s) : 6 channels
Channel positions : Front: L C R, Side: L R, LFE
Sampling rate : 48.0 kHz
Frame rate : 31.250 FPS (1536 SPF)
Bit depth : 16 bits
Compression mode : Lossy
Stream size : 513 MiB (1%)
Language : English
Service kind : Complete Main
Default : No
Forced : No
Text #1
ID : 5
Format : UTF-8
Codec ID : S_TEXT/UTF8
Codec ID/Info : UTF-8 Plain Text
Duration : 1 h 48 min
Bit rate : 152 b/s
Count of elements : 1951
Stream size : 121 KiB (0%)
Title : Full
Language : Russian
Default : No
Forced : No
Text #2
ID : 6
Format : UTF-8
Codec ID : S_TEXT/UTF8
Codec ID/Info : UTF-8 Plain Text
Duration : 1 h 46 min
Bit rate : 91 b/s
Count of elements : 1956
Stream size : 71.6 KiB (0%)
Title : Full
Language : English
Default : No
Forced : No
Menu
00:00:00.000 : en:Chapter 01
00:04:07.539 : en:Chapter 02
00:13:25.388 : en:Chapter 03
00:20:30.813 : en:Chapter 04
00:29:23.637 : en:Chapter 05
00:37:56.566 : en:Chapter 06
00:45:54.126 : en:Chapter 07
00:53:58.152 : en:Chapter 08
00:59:27.481 : en:Chapter 09
01:06:35.950 : en:Chapter 10
01:11:53.476 : en:Chapter 11
01:16:07.188 : en:Chapter 12
01:25:56.818 : en:Chapter 13
01:33:26.142 : en:Chapter 14
01:41:06.602 : en:Chapter 15
01:43:57.565 : en:Chapter 16

Релиз от: Автор релиза:
Подпишись на меня, кликни по картинке > :



   Похожие торренты   Торрент   Размер 
В этой теме нет новых непрочитанных сообщений. Ананасовый экспресс: Сижу, курю / Pineapple Express (2008) HDRip от Scarabey | D | Расширенная версия

23 | 3

745.95 МБ

В этой теме нет новых непрочитанных сообщений. Ананасовый экспресс: Сижу, курю / Pineapple Express (2008) HDRip | Расширенная версия / Unrated

59 | 5

746.44 МБ

В этой теме нет новых непрочитанных сообщений. Ананасовый экспресс: сижу, курю / Pineapple Express (2008) BDRip by msltel | D, A | Расширенная версия

85 | 21

2.41 ГБ

В этой теме нет новых непрочитанных сообщений. Ананасовый экспресс: Сижу, курю / Pineapple Express (2008) HDRip от Scarabey | D | Расширенная версия

624 | 20

1.45 ГБ

В этой теме нет новых непрочитанных сообщений. Ананасовый экспресс: сижу, курю / Pineapple Express (2008) BDRip 720p by msltel | D, A | Расширенная версия

153 | 8

5.11 ГБ

В этой теме нет новых непрочитанных сообщений. Ананасовый экспресс: сижу, курю / Pineapple Express (2008) BDRip 1080p by msltel | D, A | Расширенная версия

71 | 9

13.85 ГБ

В этой теме нет новых непрочитанных сообщений. Ананасовый экспресс: Сижу, курю / Pineapple Express (2008) BDRip 720p | [Расширенная версия / UNRATED] от NOLIMITS-TEAM

39 | 8

2.14 ГБ




Вы не можете начинать темы
Вы не можете отвечать на сообщения
Вы не можете редактировать свои сообщения
Вы не можете удалять свои сообщения
Вы не можете добавлять вложения

Перейти:  
Для Мосгорсуда, Роскомнадзора и рекламодателей: mosgorsud-torrent[собачка]yandex.ru
 Вход
ppkBB3cker v.2 © 2008-2014 @ PPK
[ Time : 0.060s | 19 Queries | GZIP : Off ]

cron