img image001 image001 image001 image001 image001 image001 image001 image001 image001 image001 image001 image001 image001 image001 image001

Planets Sun Sun Sun
Статистика раздачи
Автор: PriZraK | Размер: 7.73 ГБ | Добавлен: 10 ноя 2016
Раздают: 5    Качают: 0
Скачать торрент
Скачать торрент
Описание торрента

СообщениеДобавлено: 10 ноя 2016 


Информация о фильме
    Русское название: Посланники
    Оригинальное название: The Messengers
    Год выхода: 2007
    Жанр: ужасы, триллер, драма
    Режиссер: Дэнни Пан, Оксид Пан
    Выпущено: США
    Продолжительность: 01:42:28
    Перевод: Дублированный, Профессиональный (двухголосый, закадровый), Авторский (одноголосый, закадровый)
    В ролях: Кристен Стюарт, Дилан МакДермотт, Пенелопа Энн Миллер, Джон Корбетт, Ивэн Тернер, Теодор Тернер, Уильям Б. Дэвис, Брент Бриско, Дастин Миллиган, Джоделль Ферланд, Майкл Дэйнджерфилд, Tatiana Maslany, Ширли МакКуин, Анна Хэйгэн, Блейн Харт, Грэхэм Белл, Kaitlyn McMillan, Питер Скаулар


Сюжет фильма
    Cемья Соломон оставляет свою размеренную жизнь в Чикаго ради того, чтобы пожить на уединенной ферме в Северной Дакоте. Среди усыпанных подсолнухами идиллических полей, шестнадцатилетняя Джесс очень скоро понимает, каким кошмаром может обернуться уединение. Сразу после переезда, Джесс и ее трехлетний брат Бен видят зловещих призраков, которых никто кроме них не замечает. Когда призраки начинают вести себя агрессивно, у родителей появляются сомнения в психическом здоровье Джесс. Ее небезоблачное прошлое сталкивается с прошлым тех, кто когда-то жил в этом доме - опасное соседство для раздираемого противоречиями подростка. Ей не верят те, кого она отчаянно пытается предупредить, пока еще не слишком поздно...


Файл
    Качество: BDRip 1080p (исходник Blu-Ray Remux)
    Формат: MKV
    Видео: 1920x1038, 10745 Кбит/сек, 23,976 кадр/сек, AVC, x264, [email protected], 1.85:1, 0.225 Бит/[Пиксели*Кадры]
    Аудио 1: AC-3, 448 Кбит/сек, 6 канала(ов), 48,0 КГц - Дублированный / Русский
    Аудио 2: AC-3, 448 Кбит/сек, 6 канала(ов), 48,0 КГц - Двухголосый закадровый / Русский
    Аудио 3: AC-3, 640 Кбит/сек, 2 канала(ов), 48,0 КГц - Одноголосый закадровый, А.Дольский / Русский
    Аудио 4: AC-3, 448 Кбит/сек, 6 канала(ов), 48,0 КГц - Оригинал / Английский
    Субтитры: Русские|Полные, Английские | Полные
    Форсированные субтитры: Нет
    Чаптеры (Главы): Есть



Автор Рипа: Группа:



Format : Matroska
Format version : Version 2
File size : 7.73 GiB
Duration : 1 h 30 min
Overall bit rate : 12.2 Mb/s
Movie name : The Messengers.(2007).BDRip.1080p.[envy]
Encoded date : UTC 2016-11-08 05:54:41
Writing application : mkvmerge v5.8.0 ('No Sleep / Pillow') built on Sep 2 2012 15:37:04
Writing library : libebml v1.2.3 + libmatroska v1.3.0
Video
ID : 1
Format : AVC
Format/Info : Advanced Video Codec
Format profile : [email protected]
Format settings, CABAC : Yes
Format settings, ReFrames : 4 frames
Codec ID : V_MPEG4/ISO/AVC
Duration : 1 h 30 min
Bit rate : 10.7 Mb/s
Width : 1 920 pixels
Height : 1 038 pixels
Display aspect ratio : 1.85:1
Frame rate mode : Constant
Frame rate : 23.976 (24000/1001) FPS
Color space : YUV
Chroma subsampling : 4:2:0
Bit depth : 8 bits
Scan type : Progressive
Bits/(Pixel*Frame) : 0.225
Stream size : 6.61 GiB (85%)
Title : The Messengers.(2007).BDRip.1080p.[envy]
Writing library : x264 core 148 r2721 72d53ab
Encoding settings : cabac=1 / ref=4 / deblock=1:-1:-1 / analyse=0x3:0x113 / me=umh / subme=11 / psy=1 / psy_rd=1.00:0.00 / mixed_ref=1 / me_range=32 / chroma_me=1 / trellis=2 / 8x8dct=1 / cqm=0 / deadzone=21,11 / fast_pskip=0 / chroma_qp_offset=-2 / threads=12 / lookahead_threads=1 / sliced_threads=0 / nr=0 / decimate=1 / interlaced=0 / bluray_compat=0 / constrained_intra=0 / bframes=5 / b_pyramid=2 / b_adapt=2 / b_bias=0 / direct=3 / weightb=1 / open_gop=0 / weightp=2 / keyint=240 / keyint_min=23 / scenecut=40 / intra_refresh=0 / rc=2pass / mbtree=0 / bitrate=10745 / ratetol=2.0 / qcomp=0.60 / qpmin=0 / qpmax=69 / qpstep=4 / cplxblur=20.0 / qblur=0.5 / ip_ratio=1.40 / pb_ratio=1.30 / aq=2:0.90
Language : English
Default : Yes
Forced : No
Audio #1
ID : 2
Format : AC-3
Format/Info : Audio Coding 3
Mode extension : CM (complete main)
Format settings, Endianness : Big
Codec ID : A_AC3
Duration : 1 h 30 min
Bit rate mode : Constant
Bit rate : 448 kb/s
Channel(s) : 6 channels
Channel positions : Front: L C R, Side: L R, LFE
Sampling rate : 48.0 kHz
Frame rate : 31.250 FPS (1536 spf)
Compression mode : Lossy
Stream size : 290 MiB (4%)
Title : Dub
Language : Russian
Default : Yes
Forced : No
Audio #2
ID : 3
Format : AC-3
Format/Info : Audio Coding 3
Mode extension : CM (complete main)
Format settings, Endianness : Big
Codec ID : A_AC3
Duration : 1 h 30 min
Bit rate mode : Constant
Bit rate : 448 kb/s
Channel(s) : 6 channels
Channel positions : Front: L C R, Side: L R, LFE
Sampling rate : 48.0 kHz
Frame rate : 31.250 FPS (1536 spf)
Compression mode : Lossy
Stream size : 290 MiB (4%)
Title : DVO
Language : Russian
Default : No
Forced : No
Audio #3
ID : 4
Format : AC-3
Format/Info : Audio Coding 3
Mode extension : CM (complete main)
Format settings, Endianness : Big
Codec ID : A_AC3
Duration : 1 h 30 min
Bit rate mode : Constant
Bit rate : 192 kb/s
Channel(s) : 2 channels
Channel positions : Front: L R
Sampling rate : 48.0 kHz
Frame rate : 31.250 FPS (1536 spf)
Compression mode : Lossy
Stream size : 124 MiB (2%)
Title : AVO Дольский
Language : Russian
Default : No
Forced : No
Audio #4
ID : 5
Format : AC-3
Format/Info : Audio Coding 3
Mode extension : CM (complete main)
Format settings, Endianness : Big
Codec ID : A_AC3
Duration : 1 h 30 min
Bit rate mode : Constant
Bit rate : 448 kb/s
Channel(s) : 6 channels
Channel positions : Front: L C R, Side: L R, LFE
Sampling rate : 48.0 kHz
Frame rate : 31.250 FPS (1536 spf)
Compression mode : Lossy
Stream size : 290 MiB (4%)
Title : Eng
Language : English
Default : No
Forced : No
Text #1
ID : 6
Format : UTF-8
Codec ID : S_TEXT/UTF8
Codec ID/Info : UTF-8 Plain Text
Title : Rus full
Language : Russian
Default : No
Forced : No
Text #2
ID : 7
Format : UTF-8
Codec ID : S_TEXT/UTF8
Codec ID/Info : UTF-8 Plain Text
Title : Eng full
Language : English
Default : No
Forced : No
Menu
00:00:00.000 : :Chapter 1
00:05:46.471 : :Chapter 2
00:10:49.858 : :Chapter 3
00:15:51.492 : :Chapter 4
00:18:59.138 : :Chapter 5
00:23:08.262 : :Chapter 6
00:31:21.546 : :Chapter 7
00:37:07.267 : :Chapter 8
00:43:41.494 : :Chapter 9
00:48:10.137 : :Chapter 10
00:53:38.841 : :Chapter 11
01:00:08.605 : :Chapter 12
01:05:41.020 : :Chapter 13
01:10:54.208 : :Chapter 14
01:13:26.777 : :Chapter 15
01:18:37.171 : :Chapter 16




   Похожие торренты   Торрент   Размер 
В этой теме нет новых непрочитанных сообщений. Посланники / The Messengers (2007) BDRemux 1080p от NovaLan

19 | 46

21.46 ГБ

В этой теме нет новых непрочитанных сообщений. Посланники / The Messengers (2007) BDRip от HQCLUB

28 | 5

1.45 ГБ

В этой теме нет новых непрочитанных сообщений. Посланники / The Messengers (2007) BDRip 720p | D, P2, A

112 | 24

3.88 ГБ

В этой теме нет новых непрочитанных сообщений. Посланники / The Messengers (2007) BDRip 720p от FLINTFILMS

0 | 16

2 ГБ

В этой теме нет новых непрочитанных сообщений. Посланники / The Messengers (2007) BDRip от Dime & HQ-VIDEO

37 | 13

1.46 ГБ

В этой теме нет новых непрочитанных сообщений. Посланники / The Messengers (2007) BDRip-AVC от Leonardo and Scarabey | D | Лицензия

236 | 30

1.45 ГБ

В этой теме нет новых непрочитанных сообщений. Посланники / The Messengers (2007) BDRip 720p от KinoGadget | iPad | D

12 | 4

2.17 ГБ




Вы не можете начинать темы
Вы не можете отвечать на сообщения
Вы не можете редактировать свои сообщения
Вы не можете удалять свои сообщения
Вы не можете добавлять вложения

Перейти:  
Для Мосгорсуда, Роскомнадзора и рекламодателей: mosgorsud-torrent[собачка]yandex.ru
 Вход
ppkBB3cker v.2 © 2008-2014 @ PPK
[ Time : 0.116s | 18 Queries | GZIP : Off ]

cron