img image001 image001 image001 image001 image001 image001 image001 image001 image001 image001 image001 image001 image001 image001 image001

Planets Sun Sun Sun
Статистика раздачи
Автор: Снежана | Размер: 2.91 ГБ | Добавлен: 21 июл 2013
Раздают: 64    Качают: 54
Скачать торрент
Скачать торрент
Описание торрента

СообщениеДобавлено: 21 июл 2013 

9 1/2 недель / Nine 1/2 Weeks / Девять с половиной недель (1986) BDRip-AVC
Релиз от HQ-ViDEO


Студия: Galactic Films, Jonesfilm, Metro-Goldwyn-Mayer (MGM), Producers Sales Organization, Triple Ajaxxx
Год выхода: 1986
Жанр: Драма, Мелодрама, Эротика

Режиссер: Эдриан Лайн /Adrian Lyne

В ролях: Микки Рурк /Mickey Rourke/, Ким Бейсингер /Kim Basinger/, Маргарет Уиттон /Margaret Whitton/, Дэвид Маргулис /David Margulies/, Кристин Барански /Christine Baranski/, Карен Янг /Karen Young/, Уильям Де Акутис /William De Acutis/

О фильме: Когда Элизабет встречает Джона, ее уравновешенность улетучивается в одно мгновение. Изощренный соблазнитель втягивает ее в эффектную любовную игру, которая заставляет ее отказаться от прежних жизненных принципов. Их свидания - это утоление голода, это мед, стекающий по ее груди, это клубника, которую он губами вынимает у нее изо рта.
Их постель - это металлическая лестница в подворотне, где они занимаются любовью. И сама их любовь - это дождь, льющийся из разверзшихся небес, это землетрясение, это всесокрушающий ураган.
Их любовь - это трагическая невозможность жить вместе, потому что вместо вопроса оба задаются вопросом ...



Релиз:

Автор рипа: agc

Продолжительность: 01:56:51
Перевод: Русский многоголосый перевод + Оригинальная дорожка
Субтитры: Русские (полные)

Информация о файле:
Формат: MKV
Кодек: MPEG-4 AVC; x264 codec
Качество: BDRip-AVC (Исходник: Blu-ray Disc)
Видео: 960 x 540 (1.77778:1); 23.976 fps; 2667 kbps; 0.215 bit/pixel
Аудио #1: AC3 Dolby Digital; 448 kbps; 5.1 Ch; 48 kHz |Russian|
Аудио #2: AC3 Dolby Digital; 448 kbps; 5.1 Ch; 48 kHz |English|
Размер файла: 2981,64 Mb (2/3 DVD)

Скриншоты для оценки качества (превью - увеличение по клику):



Сэмпл

Формат : Matroska
Версия формата : Version 2
Размер файла : 2,91 Гбайт
Продолжительность : 1 ч. 56 м.
Общий поток : 3563 Кбит/сек
Дата кодирования : UTC 2012-03-02 21:35:41
Программа кодирования : mkvmerge v4.9.1 ('Ich will') сборка от Jul 11 2011 23:53:15
Библиотека кодирования : libebml v1.2.1 + libmatroska v1.1.1

Видео
Идентификатор : 1
Формат : AVC
Формат/Информация : Advanced Video Codec
Профиль формата : [email protected]
Параметр CABAC формата : Да
Параметр ReFrames формата : 16 кадров
Идентификатор кодека : V_MPEG4/ISO/AVC
Продолжительность : 1 ч. 56 м.
Битрейт : 2667 Кбит/сек
Ширина : 960 пикселей
Высота : 540 пикселей
Соотношение сторон : 16:9
Частота кадров : 23,976 кадра/сек
Цветовое пространство : YUV
Субдискретизация насыщенности : 4:2:0
Битовая глубина : 8 бит
Тип развёртки : Прогрессивная
Бит/(Пиксели*Кадры) : 0.215
Размер потока : 2,12 Гбайт (73%)
Библиотека кодирования : x264 core 120 r2164 da19765
Настройки программы : cabac=1 / ref=16 / deblock=1:-2:-1 / analyse=0x3:0x113 / me=umh / subme=9 / psy=1 / psy_rd=1.10:0.10 / mixed_ref=1 / me_range=32 / chroma_me=1 / trellis=2 / 8x8dct=1 / cqm=0 / deadzone=21,11 / fast_pskip=0 / chroma_qp_offset=-3 / threads=6 / sliced_threads=0 / nr=0 / decimate=1 / interlaced=0 / bluray_compat=0 / constrained_intra=0 / bframes=10 / b_pyramid=2 / b_adapt=2 / b_bias=0 / direct=1 / weightb=1 / open_gop=0 / weightp=2 / keyint=240 / keyint_min=23 / scenecut=40 / intra_refresh=0 / rc=2pass / mbtree=0 / bitrate=2667 / ratetol=1.0 / qcomp=0.60 / qpmin=0 / qpmax=69 / qpstep=4 / cplxblur=20.0 / qblur=0.5 / ip_ratio=1.40 / pb_ratio=1.30 / aq=1:1.00

Аудио #1
Идентификатор : 2
Формат : AC-3
Формат/Информация : Audio Coding 3
Расширение режима : CM (complete main)
Идентификатор кодека : A_AC3
Продолжительность : 1 ч. 56 м.
Вид битрейта : Постоянный
Битрейт : 448 Кбит/сек
Каналы : 6 каналов
Расположение каналов : Front: L C R, Side: L R, LFE
Частота : 48,0 КГц
Битовая глубина : 16 бит
Метод сжатия : С потерями
Размер потока : 374 Мбайт (13%)
Язык : Russian

Аудио #2
Идентификатор : 3
Формат : AC-3
Формат/Информация : Audio Coding 3
Расширение режима : CM (complete main)
Идентификатор кодека : A_AC3
Продолжительность : 1 ч. 56 м.
Вид битрейта : Постоянный
Битрейт : 448 Кбит/сек
Каналы : 6 каналов
Расположение каналов : Front: L C R, Side: L R, LFE
Частота : 48,0 КГц
Битовая глубина : 16 бит
Метод сжатия : С потерями
Размер потока : 374 Мбайт (13%)
Язык : English

Текст
Идентификатор : 4
Формат : UTF-8
Идентификатор кодека : S_TEXT/UTF8
Идентификатор кодека/Информация : UTF-8 Plain Text
Язык : Russian


ПРИЯТНОГО ПРОСМОТРА!



   Похожие торренты   Торрент   Размер 
В этой теме нет новых непрочитанных сообщений. 9 1/2 недель / Девять с половиной недель / Nine 1/2 Weeks (1986) BDRip 720p от FREEISLAND

32 | 40

11.5 ГБ

В этой теме нет новых непрочитанных сообщений. 9 1/2 недель / Девять с половиной недель / Nine 1/2 Weeks (1986) BDRip 1080 от HDReactor

53 | 26

13.03 ГБ

В этой теме нет новых непрочитанных сообщений. 9 1/2 недель / Девять с половиной недель / Nine 1/2 Weeks (1986) BDRip от HQCLUB

97 | 5

2.18 ГБ

В этой теме нет новых непрочитанных сообщений. 9 1/2 недель / Девять с половиной недель / Nine 1/2 Weeks / Nine and a Half Weeks (1986) HDRip от Scarabey | D

56 | 8

742.81 МБ

В этой теме нет новых непрочитанных сообщений. 9 1/2 недель / Девять с половиной недель / Nine 1/2 Weeks / Nine and a Half Weeks (1986) HDRip от Scarabey | D

147 | 44

1.45 ГБ

В этой теме нет новых непрочитанных сообщений. 9 1/2 недель / Девять с половиной недель / Nine 1/2 Weeks / Nine and a Half Weeks (1986) HDRip от Scarabey | P

521 | 28

1.45 ГБ

В этой теме нет новых непрочитанных сообщений. 9 1/2 недель / Девять с половиной недель / Nine 1/2 Weeks (1986) DVDRip

31 | 39

2.26 ГБ




Вы не можете начинать темы
Вы не можете отвечать на сообщения
Вы не можете редактировать свои сообщения
Вы не можете удалять свои сообщения
Вы не можете добавлять вложения

Перейти:  
Для Мосгорсуда, Роскомнадзора и рекламодателей: mosgorsud-torrent[собачка]yandex.ru
 Вход
ppkBB3cker v.2 © 2008-2014 @ PPK
[ Time : 0.209s | 18 Queries | GZIP : Off ]

cron