img image001 image001 image001 image001 image001 image001 image001 image001 image001 image001 image001 image001 image001 image001 image001

Planets Sun Sun Sun
Статистика раздачи
Автор: Nickolas3434 | Размер: 8.82 ГБ | Добавлен: 16 ноя 2014
Раздают: 15    Качают: 5
Скачать торрент
Скачать торрент
Описание торрента

СообщениеДобавлено: 16 ноя 2014 

Год выпуска: 2010
Страна: Германия
Жанр: драма
Продолжительность: 01:34:25
Перевод: любительский двухголосый
Субтитры: русские (с ненормативной лексикой)
Режиссёр: Ральф Хюттнер
В ролях: Флориан Давид Фитц, Каролине Херфурт, Хайно Ферх, Катарина Мюллер-Элмау, Йоханнес Алльмайер, Карин Талер, Тим Сейфи
Описание: Последнее желание матери Винсента, страдающего синдромом Туретта, ещё раз увидеть море. И Винсент хочет выполнить это желание. Но после смерти матери отец Винсента, политик, у которого нет ни времени, ни желания возиться с больным сыном, отвозит его в специальную клинику. Там Винсент знакомится с булимичкой Мари и невротиком Александром. После конфликта с доктором Мари крадёт ключи от её машины и предлагает Винсенту бежать вместе с ней из клиники. Волей случая, к ним присоединяется Александр. Втроём они едут в Италию, к морю…

Качество: BDRip 1080p Сравнение с исходником
Формат: MKV
Видео кодек: H.264
Аудио кодек: AC3, DTS
Видео: 11.1 Mbps,1920x816, 24 кадра/с, 0.296 bpp
Аудио 1: русский, AC3, 448 kbps, 6 ch, 48 kHz [любительский двухголосый, IgVin (Игорь Головин) и Solncekleshka (Татьяна Романовская), с ненормативной лексикой]
Аудио 2: немецкий, DTS, 1509 kbps, 6 ch, 48 kHz [оригинал]
frame I:1060 Avg QP:18.86 size:183817
frame P:25278 Avg QP:19.79 size:110356
frame B:109622 Avg QP:22.14 size: 46483
Общее
Уникальный идентификатор : 199303271727885135240651444346867425728 (0x95F069F5948E8C70868230A8171821C0)
Полное имя : D:VideoVinsent hochet k morju.2010.BDRip.1080p.mkv
Формат : Matroska
Версия формата : Version 4 / Version 2
Размер файла : 8,82 Гбайт
Продолжительность : 1 ч. 34 м.
Общий поток : 13,4 Мбит/сек
Дата кодирования : UTC 2014-11-15 11:40:43
Программа кодирования : mkvmerge v7.3.0 ('Nouages') 64bit built on Oct 22 2014 18:53:34
Библиотека кодирования : libebml v1.3.0 + libmatroska v1.4.1
_STATISTICS_WRITING_APP : mkvmerge v7.3.0 ('Nouages') 64bit built on Oct 22 2014 18:53:34
_STATISTICS_WRITING_DATE_UTC : 2014-11-15 11:40:43
_STATISTICS_TAGS : BPS DURATION NUMBER_OF_FRAMES NUMBER_OF_BYTES
DURATION : 01:34:25.003000000
NUMBER_OF_FRAMES : 531094
NUMBER_OF_BYTES : 1068561844
Видео
Идентификатор : 1
Формат : AVC
Формат/Информация : Advanced Video Codec
Профиль формата : [email protected]
Параметр CABAC формата : Да
Параметр ReFrames формата : 4 кадра
Идентификатор кодека : V_MPEG4/ISO/AVC
Продолжительность : 1 ч. 34 м.
Битрейт : 11,1 Мбит/сек
Ширина : 1920 пикселей
Высота : 816 пикселей
Соотношение сторон : 2,35:1
Режим частоты кадров : Постоянный
Частота кадров : 24,000 кадра/сек
Цветовое пространство : YUV
Субдискретизация насыщенности : 4:2:0
Битовая глубина : 8 бит
Тип развёртки : Прогрессивная
Бит/(Пиксели*Кадры) : 0.296
Размер потока : 7,35 Гбайт (83%)
Заголовок : BDRip -- STarankov
Библиотека кодирования : x264 core 142 r2431 ac76440
Настройки программы : cabac=1 / ref=4 / deblock=1:-1:-1 / analyse=0x3:0x113 / me=umh / subme=10 / psy=1 / psy_rd=1.00:0.15 / mixed_ref=1 / me_range=32 / chroma_me=1 / trellis=2 / 8x8dct=1 / cqm=0 / deadzone=21,11 / fast_pskip=1 / chroma_qp_offset=-3 / threads=6 / lookahead_threads=1 / sliced_threads=0 / nr=0 / decimate=1 / interlaced=0 / bluray_compat=0 / constrained_intra=0 / bframes=8 / b_pyramid=2 / b_adapt=2 / b_bias=0 / direct=3 / weightb=1 / open_gop=0 / weightp=2 / keyint=230 / keyint_min=23 / scenecut=40 / intra_refresh=0 / rc_lookahead=40 / rc=crf / mbtree=0 / crf=19.5 / qcomp=0.60 / qpmin=0 / qpmax=69 / qpstep=4 / vbv_maxrate=50000 / vbv_bufsize=62500 / crf_max=0.0 / nal_hrd=none / filler=0 / ip_ratio=1.40 / pb_ratio=1.30 / aq=1:1.00
Язык : German
Default : Да
Forced : Нет
_STATISTICS_WRITING_APP : mkvmerge v7.3.0 ('Nouages') 64bit built on Oct 22 2014 18:53:34
_STATISTICS_WRITING_DATE_UTC : 2014-11-15 11:40:43
_STATISTICS_TAGS : BPS DURATION NUMBER_OF_FRAMES NUMBER_OF_BYTES
DURATION : 01:34:25.000000000
NUMBER_OF_FRAMES : 135960
NUMBER_OF_BYTES : 8079989153
Аудио #1
Идентификатор : 2
Формат : AC-3
Формат/Информация : Audio Coding 3
Расширение режима : CM (complete main)
Параметр Endianness формата : Big
Идентификатор кодека : A_AC3
Продолжительность : 1 ч. 34 м.
Вид битрейта : Постоянный
Битрейт : 448 Кбит/сек
Каналы : 6 каналов
Расположение каналов : Front: L C R, Side: L R, LFE
Частота : 48,0 КГц
Битовая глубина : 16 бит
Метод сжатия : С потерями
Размер потока : 303 Мбайт (3%)
Заголовок : DVO (любительский, IgVin (Игорь Головин)&Solncekleshka (Татьяна Романовская))
Язык : Russian
Default : Да
Forced : Нет
Аудио #2
Идентификатор : 3
Формат : DTS
Формат/Информация : Digital Theater Systems
Режим : 16
Параметр Endianness формата : Big
Идентификатор кодека : A_DTS
Продолжительность : 1 ч. 34 м.
Вид битрейта : Постоянный
Битрейт : 1509 Кбит/сек
Каналы : 6 каналов
Расположение каналов : Front: L C R, Side: L R, LFE
Частота : 48,0 КГц
Битовая глубина : 16 бит
Метод сжатия : С потерями
Размер потока : 1019 Мбайт (11%)
Заголовок : Original
Язык : German
Default : Нет
Forced : Нет
Текст
Идентификатор : 4
Формат : UTF-8
Идентификатор кодека : S_TEXT/UTF8
Идентификатор кодека/Информация : UTF-8 Plain Text
Заголовок : русский
Язык : Russian
Default : Нет
Forced : Нет





   Похожие торренты   Торрент   Размер 
В этой теме нет новых непрочитанных сообщений. Винсент хочет к морю / Vincent will meer (2010) BDRip 720p by msltel | L2

58 | 6

3.66 ГБ

В этой теме нет новых непрочитанных сообщений. Винсент хочет к морю / Vincent will Meer (2010) HDRip | L2

4 | 1

1.46 ГБ

В этой теме нет новых непрочитанных сообщений. Винсент хочет к морю / Vincent will meer (2010) HDRip | Субтитры

2 | 1

1.46 ГБ

В этой теме нет новых непрочитанных сообщений. Уильям Винсент / William Vincent (2010) BDRip 1080p | P2, L1

14 | 2

7.11 ГБ

В этой теме нет новых непрочитанных сообщений. Святой Винсент / St. Vincent (2014) BDRip 1080p | L1

194 | 12

10.42 ГБ

В этой теме нет новых непрочитанных сообщений. Уильям Винсент / William Vincent (2010) BDRip-AVC от Rulya74

111 | 24

1.45 ГБ

В этой теме нет новых непрочитанных сообщений. Ван Гог. С любовью, Винсент / Loving Vincent (2017) BDRip 1080p | iTunes

615 | 57

8.2 ГБ




Вы не можете начинать темы
Вы не можете отвечать на сообщения
Вы не можете редактировать свои сообщения
Вы не можете удалять свои сообщения
Вы не можете добавлять вложения

Перейти:  
Для Мосгорсуда, Роскомнадзора и рекламодателей: mosgorsud-torrent[собачка]yandex.ru
 Вход
ppkBB3cker v.2 © 2008-2014 @ PPK
[ Time : 0.055s | 19 Queries | GZIP : Off ]

cron