img image001 image001 image001 image001 image001 image001 image001 image001 image001 image001 image001 image001 image001 image001 image001

Planets Sun Sun Sun
Статистика раздачи
Автор: Nickolas3434 | Размер: 2.3 ГБ | Добавлен: 12 янв 2018
Раздают: 52    Качают: 5
Скачать торрент
Скачать торрент
Описание торрента

СообщениеДобавлено: 12 янв 2018 

МакМафия / McMafia

Информация о сериале:
♦ Год выпуска: 2018
♦ Страна: США, Великобритания
♦ Жанр: триллер, драма, криминал
♦ Перевод: Профессиональный (многоголосый закадровый) [SDI Media]
♦ Субтитры: Отсутствуют
♦ Продолжительность: ~ 00:50:00
♦ Режиссер: Джеймс Уоткинс
♦ В ролях: Джеймс Нортон, Дэвид Стрэтэйрн, Джульет Райлэнс, Алексей Серебряков, Мария Шукшина, Ошри Коэн, Мераб Нинидзе, Клиффорд Сэмюэл, Юваль Шарф, Атул Кейл и др.
♦ Релиз от:
♦ Автор рипа: ProT1gR
♦ Примечание: Рекламы нет!
Описание сериала:
У Александра Гудмана русские корни. Его семья когда-то покинула родину для того, чтобы в новой стране обеспечить потомкам достойную жизнь. Людям чаще всего нужны веские основания для эмиграции. У семьи Александра они были. После эмиграции власть и деньги стали приоритетом, а преступление – способом их получить. Озлобленность, агрессия к государственным властям, законам и социальным рамкам привела к тому, что появился новый мафиозный клан. Независимо от экономической ситуации на международном финансовом рынке, от политики президента и внешнеполитического курса обеспечивать выживание своим близким любой ценой – закон для семьи. Быть членом одного из кланов русской мафии нелегко. Родившемуся в такой семье ребёнку сложно победить, отстоять право на инакомыслие, обрести самостоятельность. Александр мог бы стать главой клана однажды, но решил, всё же, рискнуть, сказать «нет» своим родителям и прочим родственникам. Он влюбился и одурманенный этим чувством решил жить как все – создать свой собственный бизнес, рекламировать его, платить налоги, преодолевать возражения, передать его по наследству детям, ни разу не попав за долгие годы спокойной, счастливой жизни в тюрьму. Однако волею случая он оказался на краю пропасти. Он обязан стать мафиози, притвориться им, ведь только так он сможет спасти свою любовь.

Технические данные файла:
♦ Качество: WEB-DLRip-AVC (Исходник: WEB-DL 720p)
♦ Формат: MKV
♦ Видео: 1024x576 (16:9), 25 fps, MPEG-4 AVC ~1547 kbps (0.122 bit/pixel)
♦ Аудио: AC3, 48.0 KHz, 2 ch, 192 kbps
General
Unique ID : 241491395629696175574209372522015426906 (0xB5AD8D0F5A39A206869CF6AA120D095A)
Complete name : X:x264Новая папка (5)Ma41a.S01E01.720p.SD1.Med1a.mkv
Format : Matroska
Format version : Version 2
File size : 801 MiB
Duration : 56 min 13 s
Overall bit rate : 1 993 kb/s
Encoded date : UTC 2018-01-08 22:24:17
Writing application : mkvmerge v7.8.0 ('River Man') 32bit built on Apr 3 2015 12:11:22
Writing library : libebml v1.3.1 + libmatroska v1.4.2
Video
ID : 1
Format : AVC
Format/Info : Advanced Video Codec
Format profile : [email protected]
Format settings, CABAC : Yes
Format settings, ReFrames : 12 frames
Codec ID : V_MPEG4/ISO/AVC
Duration : 56 min 13 s
Bit rate : 1 800 kb/s
Width : 1 024 pixels
Height : 576 pixels
Display aspect ratio : 16:9
Frame rate mode : Constant
Frame rate : 25.000 FPS
Color space : YUV
Chroma subsampling : 4:2:0
Bit depth : 8 bits
Scan type : Progressive
Bits/(Pixel*Frame) : 0.122
Stream size : 708 MiB (88%)
Writing library : x264 core 146 r2538 121396c
Encoding settings : cabac=1 / ref=12 / deblock=1:-3:-3 / analyse=0x3:0x113 / me=umh / subme=11 / psy=1 / psy_rd=1.00:0.00 / mixed_ref=1 / me_range=48 / chroma_me=1 / trellis=2 / 8x8dct=1 / cqm=0 / deadzone=21,11 / fast_pskip=0 / chroma_qp_offset=-2 / threads=6 / lookahead_threads=1 / sliced_threads=0 / nr=0 / decimate=0 / interlaced=0 / bluray_compat=0 / constrained_intra=0 / bframes=12 / b_pyramid=2 / b_adapt=2 / b_bias=0 / direct=3 / weightb=1 / open_gop=0 / weightp=2 / keyint=240 / keyint_min=24 / scenecut=40 / intra_refresh=0 / rc_lookahead=40 / rc=2pass / mbtree=0 / bitrate=1800 / ratetol=1.0 / qcomp=0.60 / qpmin=0 / qpmax=69 / qpstep=4 / cplxblur=20.0 / qblur=0.5 / vbv_maxrate=50000 / vbv_bufsize=62500 / nal_hrd=none / filler=0 / ip_ratio=1.40 / pb_ratio=1.30 / aq=1:1.10
Default : Yes
Forced : No
Audio
ID : 2
Format : AC-3
Format/Info : Audio Coding 3
Mode extension : CM (complete main)
Format settings, Endianness : Big
Codec ID : A_AC3
Duration : 56 min 13 s
Bit rate mode : Constant
Bit rate : 192 kb/s
Channel(s) : 2 channels
Channel positions : Front: L R
Sampling rate : 48.0 kHz
Frame rate : 31.250 FPS (1536 spf)
Bit depth : 16 bits
Compression mode : Lossy
Stream size : 77.2 MiB (10%)
Default : Yes
Forced : No




   Похожие торренты   Торрент   Размер 
В этой теме нет новых непрочитанных сообщений. МакМафия / McMafia [01x01-02 из 08] (2018) WEB-DLRip | SDI Media

37 | 7

1.37 ГБ

В этой теме нет новых непрочитанных сообщений. МакМафия / McMafia [01x01-02 из 08] (2018) WEB-DL 720р | SDI Media

69 | 14

3.78 ГБ

В этой теме нет новых непрочитанных сообщений. МакМафия / McMafia [01x01-02 из 08] (2018) WEB-DL 720р | SDI Media

0 | 0

4.88 ГБ

В этой теме нет новых непрочитанных сообщений. МакМафия / McMafia [01x01-02 из 08] (2018) HDTVRip | ColdFilm

0 | 0

1.11 ГБ

В этой теме нет новых непрочитанных сообщений. МакМафия / McMafia [01x01-03 из 08] (2018) HDTVRip | ColdFilm

48 | 22

1.76 ГБ

В этой теме нет новых непрочитанных сообщений. МакМафия / McMafia [01x01-04 из 08] (2018) HDTVRip | ColdFilm

0 | 0

2.24 ГБ

В этой теме нет новых непрочитанных сообщений. МакМафия / McMafia [01x01-02 из 08] (2018) HDTVRip 1080p | ColdFilm

39 | 19

4.43 ГБ




Вы не можете начинать темы
Вы не можете отвечать на сообщения
Вы не можете редактировать свои сообщения
Вы не можете удалять свои сообщения
Вы не можете добавлять вложения

Перейти:  
Для Мосгорсуда, Роскомнадзора и рекламодателей: mosgorsud-torrent[собачка]yandex.ru
 Вход
ppkBB3cker v.2 © 2008-2014 @ PPK
[ Time : 0.064s | 18 Queries | GZIP : Off ]

cron