img image001 image001 image001 image001 image001 image001 image001 image001 image001 image001 image001 image001 image001 image001 image001

Planets Sun Sun Sun
Статистика раздачи
Автор: Nickolas3434 | Размер: 8.86 ГБ | Добавлен: 12 янв 2018
Раздают: 32    Качают: 3
Скачать торрент
Скачать торрент
Описание торрента

СообщениеДобавлено: 12 янв 2018 

ШТРАФБАТ

Год выпуска: 2004
Жанр: Драма, военный, экранизация
Продолжительность: 525 мин. (средняя продолжительность серии: 00:47:46 )
Перевод: Не требуется
Режиссер: Николай Досталь
В ролях: Алексей Серебряков, Юрий Степанов, Александр Баширов, Илья Коврижных, Алексей Жарков,
Роман Мадянов, Михаил Еремеев, Дмитрий Назаров, Андрей Смоляков, Виктор Супрун и др.
Описание: О штрафниках военные историки говорить не любят, их братские могилы безымянны.
Штрафбаты бросали в атаки на самые неприступные участки обороны немцев. Штрафбаты было вовсе не обязательно снабжать боеприпасами и провиантом, часто еду и оружие они добывали сами, в бою.
Смерть окружала их со всех сторон: спереди их косили пулеметы противника, сзади - пулеметы заградотрядов НКВД. Фильм рассказывает о трагических судьбах штрафников, жизнями которых добивались победы в самый тяжелый период Великой Отечественной войны.


Кодек: х264
Качество: DVDRip-AVC
Видео: MPEG-4 AVC, [email protected], 25 fps,~2200 Кбит/с
Аудио: AC3, 2 ch, 192 Кбит/с
Серия 01: Бежавшего из плена русского офицера Твердохлебова обвиняют в предательстве и в качестве наказания определяют командиром штрафного батальона.
Продолжительность: 00:49:52
Серия 02: Первый приказ штрафбату Твердохлебова - взять высоту 114, путь к которой лежит через минное поле. Командир организовывает боеспособный отряд.
Продолжительность: 00:50:43
Серия 03: Из семисот бойцов отряда после взятия высоты осталось только двести. Даже в благодарность за одержанную победу штрафникам не дают провизии. Батальон голодает уже два дня.
Продолжительность: 00:41:28
Серия 04: Операция по взятию вражеского "языка" оборачивается для отряда Твердохлебова новыми потерями. Приказ выполнен, но людей, к сожалению, уже не вернуть.
Продолжительность: 00:44:28
Серия 05: Сбежав от смерти на поле боя, Цукерман рискует найти ее в больнице. Там Савелий встречает капитана Бредунова, из-за драки с которым и попал в штрафбат.
Продолжительность: 00:43:00
Серия 06: Командование решает бросить штрафбат на хорошо укрепленный немцами участок. Солдатам ясно, что это - гиблое место, и большинство людей оттуда не вернется.
Продолжительность: 00:48:09
Серия 07: Солдат из батальона Твердохлебова совершает изнасилование. Майор Харченко хочет привлечь к ответственности за это преступление и провинившегося, и самого комбата.
Продолжительность: 00:49:40
Серия 08: В помощь штрафникам направляют артиллерию с противотанковыми орудиями под командованием Бредунова. На поле боя капитан встречает своего заклятого врага Савелия.
Продолжительность: 00:49:56
Серия 09: Твердохлебов, измученный пытками в застенках Особого отдела, пытается покончить жизнь самоубийством. Однако в самый решающий момент появляется часовой.
Продолжительность: 00:51:26
Серия 10: В бою с немцами погибают Харченко и командир батальона Головачев. По приказу генерала Лыкова командиром штрафников снова становится Твердохлебов.
Продолжительность: 00:49:00
Серия 11: Батальон штрафников получает приказ преодолеть реку и выбить укрепившихся на том берегу немцев. Командир понимает, что бойцам вряд ли удастся выжить.
Продолжительность: 00:47:51


x264 [info]: frame I:460 Avg QP:17.47 size: 57484
x264 [info]: frame P:19157 Avg QP:19.02 size: 25297
x264 [info]: frame B:55196 Avg QP:21.37 size: 6114
Общее
Уникальный идентификатор : 181339748062415600461963080112639683708 (0x886CC3DCF1F0A65AAE9D4681E935AC7C)
Полное имя : D:ШТРАФБАТ_2004-DVDRip-AVC_KORSARШтрафбат-1.mkv
Формат : Matroska
Версия формата : Version 2
Размер файла : 878 Мбайт
Продолжительность : 49 м. 52 с.
Общий поток : 2462 Кбит/сек
Название фильма : ШТРАФБАТ_2004-DVDRip-AVC_KORSAR
Дата кодирования : UTC 2018-01-05 04:35:27
Программа кодирования : mkvmerge v5.8.0 ('No Sleep / Pillow') built on Sep 2 2012 15:37:04
Библиотека кодирования : libebml v1.2.3 + libmatroska v1.3.0
Видео
Идентификатор : 1
Формат : AVC
Формат/Информация : Advanced Video Codec
Профиль формата : [email protected]
Параметр CABAC формата : Да
Параметр RefFrames формата : 15 кадров
Идентификатор кодека : V_MPEG4/ISO/AVC
Продолжительность : 49 м. 52 с.
Битрейт : 2221 Кбит/сек
Ширина : 708 пикселей
Высота : 476 пикселей
Соотношение сторон : 16:10
Соотношение сторон в оригинале : 16:10
Режим частоты кадров : Постоянный
Частота кадров : 25,000 кадров/сек
Цветовое пространство : YUV
Субдискретизация насыщенности : 4:2:0
Битовая глубина : 8 бит
Тип развёртки : Прогрессивная
Бит/(Пиксели*Кадры) : 0.264
Размер потока : 792 Мбайт (90%)
Библиотека кодирования : x264 core 148 r2744kMod b97ae06
Настройки программы : cabac=1 / ref=15 / deblock=1:-2:-1 / analyse=0x3:0x133 / me=umh / subme=10 / psy=1 / fade_compensate=0.00 / psy_rd=1.05:0.10 / mixed_ref=1 / me_range=40 / chroma_me=1 / trellis=2 / 8x8dct=1 / cqm=0 / deadzone=21,11 / fast_pskip=1 / chroma_qp_offset=-3 / threads=12 / lookahead_threads=3 / sliced_threads=0 / nr=0 / decimate=1 / interlaced=0 / bluray_compat=0 / constrained_intra=0 / bframes=10 / b_pyramid=2 / b_adapt=2 / b_bias=0 / direct=1 / weightb=1 / open_gop=0 / weightp=2 / keyint=250 / keyint_min=25 / scenecut=40 / intra_refresh=0 / rc=crf / mbtree=0 / crf=18.0000 / qcomp=0.63 / qpmin=0 / qpmax=39 / qpstep=4 / ip_ratio=1.40 / pb_ratio=1.30 / aq=1:1.00
Язык : English
Default : Да
Forced : Нет
Цветовой диапазон : Limited
Основные цвета : BT.601 PAL
Характеристики трансфера : BT.470 System B, BT.470 System G
Коэффициенты матрицы : BT.601
Аудио
Идентификатор : 2
Формат : AC-3
Формат/Информация : Audio Coding 3
Параметр Endianness формата : Big
Идентификатор кодека : A_AC3
Продолжительность : 49 м. 52 с.
Вид битрейта : Постоянный
Битрейт : 192 Кбит/сек
Каналы : 2 канала
Расположение каналов : Front: L R
Частота : 48,0 КГц
Частота кадров : 31,250 кадров/сек (1536 SPF)
Битовая глубина : 16 бит
Метод сжатия : С потерями
Размер потока : 68,5 Мбайт (8%)
Язык : Russian
Default : Да
Forced : Нет
Меню
00:00:00.000 : en:Chapter 1
00:02:27.120 : en:Chapter 2
00:12:53.040 : en:Chapter 3
00:26:31.440 : en:Chapter 4
00:36:40.440 : en:Chapter 5
00:40:33.000 : en:Chapter 6
00:45:17.040 : en:Chapter 7
00:47:22.920 : en:Chapter 8
00:49:49.800 : en:Chapter 9




   Похожие торренты   Торрент   Размер 
В этой теме нет новых непрочитанных сообщений. Штрафбат [01-11 из 11] (2004) DVDRip

429 | 65

7.3 ГБ

В этой теме нет новых непрочитанных сообщений. Штрафбат [01-11 из 11] (2004) DVDRip

1629 | 236

5.37 ГБ

В этой теме нет новых непрочитанных сообщений. Штрафбат [01-11 из 11] (2004) DVDRip.AVC

403 | 69

7.91 ГБ

В этой теме нет новых непрочитанных сообщений. Штрафбат [01-11 из 11] (2004) DVDRip-AVC [Hi10P] от FREEISLAND

677 | 85

4.37 ГБ

В этой теме нет новых непрочитанных сообщений. Штрафбат [01-11 из 11] (2004) 3хDVD5

254 | 17

13.02 ГБ

В этой теме нет новых непрочитанных сообщений. Штрафбат [01-11 из 11] (2004) WEBRip 1080p

24 | 6

22.74 ГБ

В этой теме нет новых непрочитанных сообщений. Ночной продавец (2004) DVDRip-AVC от KORSAR

16 | 0

1.81 ГБ




Вы не можете начинать темы
Вы не можете отвечать на сообщения
Вы не можете редактировать свои сообщения
Вы не можете удалять свои сообщения
Вы не можете добавлять вложения

Перейти:  
Для Мосгорсуда, Роскомнадзора и рекламодателей: mosgorsud-torrent[собачка]yandex.ru
 Вход
ppkBB3cker v.2 © 2008-2014 @ PPK
[ Time : 0.067s | 17 Queries | GZIP : Off ]

cron